#TITLE:Csiko's Post;
#SUBTITLE:;
#ARTIST:Banya;
#TITLETRANSLIT:;
#SUBTITLETRANSLIT:;
#ARTISTTRANSLIT:;
#CREDIT:;
#BANNER:;
#BACKGROUND:;
#LYRICSPATH:;
#CDTITLE:;
#MUSIC:Csikos post.mp3;
#MUSICLENGTH:104.341;
#OFFSET:-0.080;
#SAMPLESTART:31.625;
#SAMPLELENGTH:12.000;
#SELECTABLE:YES;
#BPMS:0.000=180.000;
#STOPS:;
#BGCHANGES:;
#FIRSTBEAT:16.000;

#LASTBEAT:303.000;

#SONGFILENAME:Songs/ERICth The 3rd/Csikos Post/csikos post.sm;

#HASMUSIC:1;

#HASBANNER:0;


//---------------dance-single - MANIAC----------------
#NOTES:
     dance-single:
     MANIAC:
     hard:
     6:
     0.571,0.617,0.393,0.077,0.000,368.000,41.000,8.000,0.000,0.000:





0000
0000
0000
0000
,
0000
0000
0000
0000
,
0000
0000
0000
0000
,
0000
0000
0000
0000
,
1000
0001
1000
0000
1000
0001
1000
0000
,
1000
0001
1000
0001
1000
0000
0001
0000
,
1000
0000
0100
0010
0100
0000
0100
0000
,
0010
0001
0010
0000
,
0001
1000
0001
1000
,
0001
0000
0010
0000
0001
0010
0001
0000
,
0100
0000
0100
1000
0100
0000
1000
0000
,
0100
0010
0010
0000
,
1000
0010
1000
0010
1000
0010
1000
0010
,
1000
0000
1000
0010
1000
0000
0010
0000
,
1100
1100
1100
0000
,
0011
0011
0011
0000
,
0100
0000
1000
0100
0001
0100
1000
0000
,
0010
0000
1000
0010
0001
0010
1000
0000
,
1010
1010
1010
0000
,
0101
0101
0101
0000
,
0100
0001
0100
0000
0100
0001
0100
0001
,
1000
0100
1000
0100
1000
0000
1001
0000
,
1000
0001
1000
0000
0001
1000
0001
0000
,
1000
0001
1000
0001
1000
0000
0000
0000
,
1000
0000
0100
0010
0100
0000
0100
0000
,
0010
0001
0010
0000
,
0001
1000
0001
1000
,
0001
0000
0010
0000
0001
0010
0001
0000
,
0100
0000
0100
1000
0100
0000
1000
0000
,
0100
0010
0010
0000
,
1000
0010
1000
0010
1000
0010
1000
0010
,
1000
0000
1000
0010
1000
0000
0010
0000
,
1100
1100
1100
0000
,
0011
0011
0011
0000
,
0100
0000
1000
0100
0001
0100
1000
0000
,
0010
0000
1000
0010
0001
0010
1000
0000
,
1010
1010
1010
0000
,
0101
0101
0101
0000
,
0100
0001
0100
0000
0100
0001
0100
0001
,
1000
0100
1000
0100
1000
0000
1001
0000
,
2000
0000
0000
0000
,
3200
0000
0000
0000
,
0320
0000
0000
0000
,
0032
0000
0000
0000
,
2003
0000
0000
0000
,
3200
0000
0000
0000
,
0320
0000
0001
0000
,
0032
1000
1000
1003
,
1000
0100
0010
0100
1000
0100
0010
0100
,
1000
0100
0010
0100
1000
0100
0010
0000
,
0001
0100
0010
0100
0001
0100
0010
0100
,
0001
0100
0010
0100
0001
0100
0010
0000
,
1000
0001
0010
0001
1000
0001
0010
0001
,
1000
0001
0010
0001
1000
0001
0010
0000
,
0001
1000
0010
1000
0001
1000
0010
1000
,
0001
1000
0010
1000
0001
1000
0010
0000
,
1000
0100
0010
0100
1000
0100
0010
0100
,
1000
0100
0010
0100
1000
0100
0010
0000
,
0001
0100
0010
0100
0001
0100
0010
0100
,
0001
0100
0010
0100
0001
0100
0010
0000
,
1000
0001
0010
0001
1000
0001
0010
0001
,
1000
0001
0010
0001
1000
0001
0010
0000
,
0001
1000
0010
1000
0001
1000
0010
1000
,
0001
1000
0010
1000
0001
1000
0010
0000
,
1001
1001
1001
0000
,
0110
0110
0110
0000
,
1000
0000
1000
0100
0010
0001
0001
0000
,
1000
0000
1000
0100
0010
0001
0001
0000
,
0110
0110
0110
0000
,
1001
1001
1001
0000
,
1000
0100
1000
0000
0001
0010
0001
1000
,
0100
1000
0100
1000
0001
0000
1001
0000
,
1000
0100
1000
0000
0001
0010
0001
1000
,
0100
1000
0100
1000
0001
0000
1001
0000
,
1000
0100
1000
0000
0001
0010
0001
1000
,
0100
1000
0100
1000
0001
0000
1001
0000;

//---------------dance-single - ANOTHER----------------
#NOTES:
     dance-single:
     ANOTHER:
     medium:
     3:
     0.375,0.472,0.096,0.048,0.000,259.000,10.000,5.000,0.000,0.000:



0000
0000
0000
0000
,
0000
0000
0000
0000
,
0000
0000
0000
0000
,
0000
0000
0000
0000
,
0001
0000
1000
0000
,
0001
1000
0001
0000
,
0100
1000
0010
1000
,
0100
1000
0001
0000
,
0010
0001
1000
0100
,
0010
0000
0001
0000
1000
0001
1000
0000
,
0100
0010
0001
0100
,
0010
1000
0001
0000
,
1000
0100
0010
0001
,
1000
0000
0010
1000
0010
0000
0000
0000
,
1000
0001
1000
0000
,
0100
0010
0100
0000
,
1000
0000
0001
0000
0010
0001
0010
0000
,
0001
0000
1000
0000
0100
1000
0100
0000
,
0010
0100
0010
0000
,
0001
1000
0001
0000
,
1000
0100
1000
0000
0100
1000
0100
0000
,
1000
0100
1000
0100
1000
0000
0000
0000
,
0001
1000
0001
1000
,
0100
0010
0001
0000
,
1001
0100
0010
0001
,
1000
0010
1000
0000
,
0100
0010
0001
1000
,
0100
0000
0010
0000
0001
0010
0001
0000
,
0100
1000
0010
0100
,
0001
1000
0001
0000
,
0100
0010
0001
1000
,
0100
0000
0010
0100
0010
0000
0000
0000
,
1001
0100
1001
0000
,
1001
0010
1001
0000
,
0100
0000
1000
0000
0010
1000
0100
0000
,
1000
0000
0001
0000
0010
0001
0100
0000
,
0001
1000
0100
0000
,
0001
0100
0001
0000
,
0100
0000
0001
0000
,
1000
0001
1000
0000
,
2000
0000
0000
0000
,
3020
0000
0000
0000
,
0230
0000
0000
0000
,
0010
0010
0010
0010
,
0302
0000
0000
0000
,
2000
0000
0000
0000
,
0000
0000
0000
0000
,
0000
0000
0000
3000
0003
0000
0000
0000
,
0001
1000
0010
1000
,
0100
0010
0001
1000
,
0100
0100
0010
0010
,
1000
0001
0010
0100
,
0010
0001
0100
1000
,
0010
0001
0100
0010
,
0100
1000
0001
0010
,
0100
1000
0001
0100
,
0010
0100
0010
1000
,
0100
0010
0001
1000
,
0010
0100
0001
1000
,
0010
0100
0010
0100
,
0001
1000
0001
0010
,
0001
1000
0010
0100
,
0001
1000
0100
0010
,
0100
0010
0001
0010
,
1001
0100
1001
0000
,
1001
0010
1001
0000
,
0100
0000
1000
0000
0001
1000
0001
0000
,
0010
0000
0100
0000
1000
0001
1000
0000
,
0100
0010
0001
0000
,
1000
0001
0100
0000
,
1000
0001
0010
0001
,
1000
0001
1000
0001
1000
0000
0000
0000
,
0010
0100
0010
0100
,
0001
1000
0001
1000
0001
0000
0000
0000
,
0010
0100
0010
0000
0010
0100
0010
0000
,
0010
0100
0010
0100
0010
0000
1001
0000;

//---------------dance-single - BASIC----------------
#NOTES:
     dance-single:
     BASIC:
     easy:
     1:
     0.188,0.290,0.105,0.000,0.000,126.000,11.000,0.000,0.000,0.000:







0000
0000
0000
0000
,
0000
0000
0000
0000
,
0000
0000
0000
0000
,
0000
0000
0000
0000
,
0000
0000
0000
0000
,
0000
0000
0000
0000
,
1001
0000
0100
0000
,
0010
0100
0010
0000
,
1000
0000
0001
0000
,
0100
0000
0010
0000
,
1001
0000
0000
0000
,
0100
0010
0100
0000
,
1000
0000
0001
0000
,
0100
0000
0010
0000
,
1000
0000
0000
0000
,
0001
0000
0000
0000
,
0100
0010
0100
0000
,
0001
1000
0001
0000
,
0100
0000
0000
0000
,
0010
0000
0000
0000
,
1000
0010
1000
0000
,
0000
0001
0010
0000
,
0001
0000
1000
0000
,
0001
1000
0001
0000
,
0110
0000
0000
0001
,
1000
0001
1000
0000
,
0100
0000
0010
0000
,
0010
0001
0010
0000
,
0001
1000
0100
0000
,
0100
0000
0000
0000
,
0100
0000
0100
0000
,
0100
0010
0100
0000
,
1001
0000
0000
0000
,
0110
0000
0000
0000
,
1000
0100
0010
0000
,
0001
0100
0010
0000
,
1001
0000
0000
0000
,
1001
0000
0000
0000
,
0010
0000
0100
0000
,
0100
0010
0100
0000
,
0100
0000
0000
0000
,
0000
0000
0000
0000
,
0100
0000
0000
0000
,
0100
0000
0000
0000
,
0010
0000
0000
0000
,
0000
0000
0000
0000
,
0010
0000
0000
0000
,
0010
0000
0010
0000
,
0010
0000
0001
0000
,
1000
0000
0100
0000
,
0010
0000
0001
0000
,
1000
0000
0100
0000
,
0010
0000
0010
0000
,
1000
0000
0001
0000
,
0001
0000
0100
0000
,
0010
0000
0010
0000
,
1000
0000
0001
0000
,
1000
0000
0100
0000
,
0010
0000
0100
0000
,
0001
0000
1000
0000
,
0010
0000
0001
0000
,
0010
0000
0001
0000
,
0100
0000
0010
0000
,
0100
0000
1000
0000
,
1000
0000
0001
0000
,
1000
0000
0001
0000
,
0100
0000
0100
0000
,
0100
0000
0100
0000
,
0010
0000
1000
0000
,
0001
0000
1000
0000
,
1001
0000
0000
0000
,
0000
0000
0000
0000
,
0110
0000
0000
0000
,
0000
0000
0000
0000
,
1001
0000
0000
0000
,
0000
0000
0000
0110;
